Yamla Pagla Deewana Phir Se Full Movie Direct Download In 720p HD WEBRip Quality Encoded In x264 MKV.

Yamla Pagla Deewana Phir Se Full Movie HD Download 720p Direct Links

Details Of Full Length Free Videos

Title: Yamla Pagla Deewana Phir Se 2018
Genres: Action | Comedy
Country: India
Language: Hindi
Release Date: 31 August 2018
Quality: 720p WEBRip x264
Format: MKV
Size: 1.1-GB

IMDb

Storyline

Yamla Pagla Deewana Phir Se Full Movie Free Download Direct Links Full HD 720p Inheriting from the ancestors, the legacy of the Ayurveda panacea ‘Vajrakavach’, a famed and effective remedy for all ills, the brother duo Pooran and Kaala use the kavach with varied intentions. While Pooran who is good-hearted puts in use his heritage to help people, Kaala looks out for his interest in money. Parmar, an erstwhile Casanova and a colorful character who is also a sharp and intelligent lawyer of repute, is the paying guest in the brothers’ house. He is a thorn in Kaala’s side, as he is paying the same rent for 35 years, that is of 125 rupees. Adding to the Punjabi mix, Chikoo is a pretty Gujarati girl, who steals Kaala’s heart and brings a sinister twist to the tale.

She leaves for Gujarat and Kala, who has fallen for her, tries to keep contact with her, but fails. Yamla Pagla Deewana Phir Se Full HD Movie Download Mafatiya now, sends a legal notice to Puran as he has now patented the Vajrakavach and renamed it the Cure Medicine. Puran, now left to battle Mafatiya, contacts Parmar. They all agree and go to Gujarat and live in the same colony, unknowingly where Chiku also lives. The colony, who hates Punjabis, starts to like Puran as he cures an incurable girl with bad eyesight. During the lawsuit, the judge is revealed to be an old friend of Parmar’s (Shatrughan Sinha). After 2 dates, Mafatiya offers Parmar 10 crores and Parmar agrees. Yamla Pagla Deewana Phir Se 720p HD He and Kala go to Puran but he is dissapointed with both of them. As he is leaving for Punjab, Chiku arrives and confesses to have stolen the Vajrakavach. She plans to tell the truth next day in court but Mafatiya kidnaps her. Puran fights the goons and gets her back and she tells the truth in court. Mafatiya Pharma is closed down and Puran is given back his ancestral heritage. He tells the Ayurveda is the best medicine of all and we should preserve it. .

About Of Yamla Pagla Deewana Phir Se 2018 Film:

Yamla Pagla Deewana: Phir Se is a 2018 Indian Bollywood action comedy film, directed by Navaniat Singh. It is a sequel to the 2013 film, Yamla Pagla Deewana 2 and the third installment of Yamla Pagla Deewana film series. The film stars Dharmendra, Sunny Deol, Bobby Deol and Kriti Kharbanda in lead roles and had its worldwide theatrical release on 31 August 2018.

Yamla Pagla Deewana Phir Se Full Movie HD Cast

  • Dharmendra as Jaywant Parmar
  • Sunny Deol as Pooran
  • Bobby Deol as Kalaa
  • Kriti Kharbanda as Chikoo
  • Binnu Dhillon as Billa
  • Shatrughan Sinha as Judge Sunil Sinha
  • Asrani as Nanu
  • Satish Kaushik as Lawyer Bedi
  • Mohan Kapoor as Marfatia
  • Paresh Ganatra as Paresh Patel
  • Rajesh Sharma as Lawyer Bhatia
  • Ashu Sharma as Preston
  • Anita Devgan as Sati
  • Bharat Bhatia as Sainath
  • Salman Khan as Mastana (Cameo Appearance)
  • Priyanka Lalwani Special Role
  • Rekha Special Appearance
  • Sonakshi Sinha Special Appearance

MKV File Details

MKV File Details

General  Yamla Pagla Deewana Phir Se Full Movie Download In Hd Quality
Format : Matroska
Format version : Version 4 / Version 2
File size : 1.12 GiB
Duration : 2 h 19 min
Overall bit rate : 1 146 kb/s

Video Yamla Pagla Deewana 2 Phir Se Full Movie
ID : 1
Format : AVC
Format/Info : Advanced Video Codec
Format profile : [email protected]
Format settings : CABAC / 4 Ref Frames
Format settings, CABAC : Yes
Format settings, RefFrames : 4 frames
Codec ID : V_MPEG4/ISO/AVC
Duration : 2 h 19 min
Bit rate : 1 000 kb/s
Width : 1 280 pixels
Height : 544 pixels
Display aspect ratio : 2.35:1
Frame rate mode : Constant
Frame rate : 25.000 FPS
Color space : YUV
Chroma subsampling : 4:2:0
Bit depth : 8 bits
Scan type : Progressive
Bits/(Pixel*Frame) : 0.057
Stream size : 1 016 MiB (89%)
Writing library : x264 core 155 r2901 7d0ff22
Default : Yes
Forced : No

Audio
ID : 2 Yamla Pagla Deewana 2 Phir Se Download
Format : AAC
Format/Info : Advanced Audio Codec
Format profile : LC
Codec ID : A_AAC-2
Duration : 2 h 19 min
Bit rate : 127 kb/s
Channel(s) : 2 channels
Channel positions : Front: L R
Sampling rate : 48.0 kHz
Frame rate : 46.875 FPS (1024 SPF)
Compression mode : Lossy
Stream size : 127 MiB (11%)
Language : Hindi
Default : Yes
Forced : No

Images, Screenshots Of Full Episodes

Some Images Of Yamla Pagla Deewana Phir Se 2018 Full HD 720p WEBRip x264

Yamla Pagla Deewana Phir Se Full Movie HD Download 720p Direct Links

Yamla Pagla Deewana Phir Se Full Movie HD Download 720p Direct Links

Yamla Pagla Deewana Phir Se Full Movie HD Download 720p Direct Links

Yamla Pagla Deewana Phir Se Full Movie HD Download 720p Direct Links

Yamla Pagla Deewana Phir Se Full Movie HD Download 720p Direct Links

Yamla Pagla Deewana Phir Se Full Movie HD Download 720p Direct Links

Watch The Full HD 720p, 1080p Movie Trailers

Watch Yamla Pagla Deewana Phir Se Full Movie HD Trailer

Direct Download Links Of Yamla Pagla Deewana Phir Se Full Movie In 720p HD Given Below

Free Download Direct Links HD

Direct Links For Premium Users

If you are the member of this site then enter your login details and Enjoy Direct Links

Leave a Reply

Your email address will not be published. Required fields are marked *

Check Also

Puncch Beat Season 1 – Complete [Updated]

Puncch Beat Web Series Season 1 All Episodes Free Download In Hindi 720p WEB-DL Quality En…