Temper 2 2019 (Kanthaswamy) Hindi Dubbed Full Movie Free Download 720p HD HDRip Quality Encoded In x264.

Temper 2 2019 (Kanthaswamy) Hindi Dubbed

Details Of Full Length Free Videos

Title: Temper 2/Kanthaswamy (2019)
Genre: Action
Release Year: 2019
Language: Hindi
Quality: 720p HDRip x264
Format: MKV
Size: 1-GB

IMDb

MKV File Details

MKV File Details

Format : Matroska
Format version : Version 4
File size : 1.04 GiB
Duration : 2 h 28 min
Overall bit rate : 999 kb/s
Encoded date : UTC 2019-01-19 04:35:48 / UTC
Writing application : mkvmerge v28.1.0 (‘Morning Child’) 64-bit
Writing library : libebml v1.3.6 + libmatroska v1.4.9 / Lavf55.12.0

Video
ID : 1
Format : AVC
Format/Info : Advanced Video Codec
Format profile : [email protected]
Format settings : CABAC / 8 Ref Frames
Format settings, CABAC : Yes
Format settings, RefFrames : 8 frames
Codec ID : V_MPEG4/ISO/AVC
Duration : 2 h 28 min
Bit rate : 900 kb/s
Width : 1 280 pixels
Height : 548 pixels
Display aspect ratio : 2.35:1
Frame rate mode : Constant
Frame rate : 25.000 FPS
Color space : YUV
Chroma subsampling : 4:2:0
Bit depth : 8 bits
Scan type : Progressive
Bits/(Pixel*Frame) : 0.051
Stream size : 957 MiB (90%)
Writing library : x264 core 142 r2479 dd79a61
Default : Yes
Forced : No
Color range : Limited
Color primaries : BT.709
Transfer characteristics : BT.709
Matrix coefficients : BT.709

Audio
ID : 2
Format : AAC LC SBR
Format/Info : Advanced Audio Codec Low Complexity with Spectral Band Replication
Commercial name : HE-AAC
Format settings : NBC
Codec ID : A_AAC-5
Duration : 2 h 28 min
Bit rate : 96.0 kb/s
Channel(s) : 2 channels
Channel layout : L R
Sampling rate : 44.1 kHz
Frame rate : 21.533 FPS (2048 SPF)
Compression mode : Lossy
Delay relative to video : -115 ms
Stream size : 102 MiB (10%)
Language : English
Default : Yes
Forced : No

Images, Screenshots Of Full Episodes

Screenshots/Images Of Temper 2 (2019) Hindi Dubbed 720p HDRip Movie.

Temper 2 2019 (Kanthaswamy) Hindi Dubbed

Temper 2 2019 (Kanthaswamy) Hindi Dubbed

Temper 2 2019 (Kanthaswamy) Hindi Dubbed

Temper 2 2019 (Kanthaswamy) Hindi Dubbed

Temper 2 2019 (Kanthaswamy) Hindi Dubbed

Watch The Full HD 720p, 1080p Movie Trailers

Watch Temper 2 (2019) In Hindi Dubbed Online

Free Download Temper 2 (2019) In Hindi Dubbed 720p HD From Below

Free Download Direct Links HD

Direct Links For Premium Users

If you are the member of this site then enter your login details and Enjoy Direct Links

Leave a Reply

Your email address will not be published. Required fields are marked *

Check Also

Puncch Beat Season 1 – Complete [Updated]

Puncch Beat Web Series Season 1 All Episodes Free Download In Hindi 720p WEB-DL Quality En…