Rogue One: A Star Wars Story Full Movie Download In 720p BDRip Quality Encoded In x264 With Multi Original Audio’s [Hindi + English + Tamil].

Rogue One: A Star Wars Story Full Movie Download 720p BDRip HD In Hindi, English, Tamil Dubbed Audio

Details Of Full Length Free Videos

Title: Rogue One: A Star Wars Story 2016
Genres: Action | Adventure | Sci-Fi
Country: USA
Language: Hindi | Tamil | English
Release Date: 16 December 2016
Quality: 720p HDRip x264
Format: MKV
Size: 1.26-GB

IMDb

Storyline

Rogue One: A Star Wars Story 720p HD Movie Download In Hindi, English and Tamil All appearance lost for the Rebellion against the Empire as they learn of the existence of a brand new super weapon, the Death Star. Once a potential weakness in its construction is uncovered, the Rebel Alliance should launched on a desperate mission to steal the plans for the Death Star. the longer term of the complete galaxy currently rests upon its success Rogue One: A Star Wars Story Hindi Dubbed 720p Download With Tamil and English.

Rogue One: A Star Wars Story (or merely scalawag One) could be a 2016 yank epic area opera film directed by Gareth Edwards. The playscript by Chris Weitz and Tony Gilroy is from a story by John hummock and city Whitta. it had been made by Lucasfilm and distributed by film producer Studios Motion photos. it’s the primary installment of the Star Wars compendium series, set simply before the events of a brand new Hope, and follows a gaggle of rebels on a mission to steal the plans for the Death Star, the Galactic Empire’s superweapon. The forged includes Felicity Jones, Diego Luna, mount Erich Mendelsohn, Donnie Yen, Mads Mikkelsen, Alan Tudyk, Riz Ahmed, Jiang Wen, and Forest Whitaker.

Cast

  • Felicity Jones as Jyn Erso, a young renegade woman who is detained for her crimes against the Empire until she is freed by the Rebel Alliance. She has used many aliases during her life such as Lianna Hallik, Tanith Pontha, and Kestrel Dawn, while her father affectionately calls her “Stardust”.
  • Beau and Dolly Gadsdon as a young Jyn Erso at different points in her life.
  • Diego Luna as Cassian Andor, a Rebel Alliance Captain and Intelligence officer.
  • Ben Mendelsohn as Orson Krennic, the Director of Advanced Weapons Research for the Imperial Military.
  • Donnie Yen as Chirrut Îmwe, a blind warrior who believes in the Force. He is said to be one of the Guardians of the Whills.
  • Mads Mikkelsen as Galen Erso, Jyn’s father and a research scientist.
  • Alan Tudyk as K-2SO, a former Imperial enforcer droid who was reprogrammed by Cassian Andor to serve the Rebellion.
  • Riz Ahmed as Bodhi Rook, a former Imperial cargo pilot who defects to the rebels under the influence of Galen Erso.
  • Jiang Wen as Baze Malbus, a longtime companion of Chirrut Îmwe and one-time devoted Guardian of the Whills, now a Rebel warrior and mercenary.
  • Forest Whitaker as Saw Gerrera, a veteran of the Clone Wars and a friend of the Erso family who had mentored Jyn in her later childhood years.

Video File Details

Video File Details

Video
ID : 1
Format : AVC Free Download Full Movie
Format/Info : Advanced Video Codec
Format profile : [email protected]
Format settings : CABAC / 4 Ref Frames
Format settings, CABAC : Yes
Format settings, RefFrames : 4 frames
Codec ID : V_MPEG4/ISO/AVC
Duration : 2 h 13 min
Bit rate : 900 kb/s
Width : 1 280 pixels
Height : 534 pixels
Display aspect ratio : 2.40:1
Original display aspect ratio : 2.40:1
Frame rate mode : Constant
Frame rate : 23.976 FPS
Color space : YUV
Chroma subsampling : 4:2:0
Bit depth : 8 bits
Scan type : Progressive
Bits/(Pixel*Frame) : 0.055
Stream size : 862 MiB (72%)
Writing library : x264 core 148
Encoding settings : Direct Links MOvie cabac=1 / ref=4 / deblock=1:-1:-1 / analyse=0x3:0x133 / me=umh / subme=9 / psy=1 / psy_rd=1.00:0.15 / mixed_ref=1 / me_range=24 / chroma_me=1 / trellis=2 / 8x8dct=1 / cqm=0 / deadzone=21,11 / fast_pskip=0 / chroma_qp_offset=-3 / threads=12 / lookahead_threads=1 / sliced_threads=0 / nr=0 / decimate=1 / interlaced=0 / bluray_compat=0 / constrained_intra=0 / bframes=3 / b_pyramid=2 / b_adapt=2 / b_bias=0 / direct=3 / weightb=1 / open_gop=0 / weightp=2 / keyint=250 / keyint_min=23 / scenecut=40 / intra_refresh=0 / rc_lookahead=60 / rc=2pass / mbtree=1 / bitrate=900 / ratetol=1.0 / qcomp=0.60 / qpmin=0 / qpmax=69 / qpstep=4 / cplxblur=20.0 / qblur=0.5 / vbv_maxrate=31250 / vbv_bufsize=31250 / nal_hrd=none / filler=0 / ip_ratio=1.40 / aq=1:1.00
Language : English
Default : Yes
Forced : No

Audio #1
ID : 2 720p HD Download
Format : MPEG Audio
Format version : Version 1
Format profile : Layer 3
Format settings : Joint stereo / MS Stereo
Codec ID : A_MPEG/L3
Codec ID/Hint : MP3
Duration : 2 h 13 min
Bit rate mode : Variable Tamil Dubbed Full Movie
Bit rate : 128 kb/s
Channel(s) : 2 channels
Sampling rate : 48.0 kHz
Frame rate : 41.667 FPS (1152 SPF)
Compression mode : Lossy
Delay relative to video : -43 ms
Stream size : 117 MiB (10%)
Writing library : LAME3.99r
Encoding settings : -m j -V 4 -q 3 -lowpass 17 –abr 128
Language : Hindi
Default : Yes
Forced : No

Audio #2
ID : 3
Format : MPEG Audio
Format version : Version 1
Format profile : Layer 3
Format settings : Joint stereo / MS Stereo
Codec ID : A_MPEG/L3
Codec ID/Hint : MP3
Duration : 2 h 13 min
Bit rate mode : Variable Hindi Dubbed Full Movie Download
Bit rate : 102 kb/s
Nominal bit rate : 128 kb/s
Channel(s) : 2 channels
Sampling rate : 44.1 kHz
Frame rate : 38.281 FPS (1152 SPF)
Compression mode : Lossy
Delay relative to video : -43 ms
Stream size : 97.7 MiB (8%)
Writing library : LAME3.99r
Encoding settings : -m j -V 4 -q 3 -lowpass 17 –abr 128
Language : Tamil
Default : No
Forced : No

Audio #3
ID : 4
Format : AAC LC
Format/Info : Advanced Audio Codec Low Complexity
Codec ID : A_AAC-2
Duration : 2 h 13 min
Bit rate : 132 kb/s
Channel(s) : 2 channels
Channel layout : L R
Sampling rate : 48.0 kHz
Frame rate : 46.875 FPS (1024 SPF) Download In 720p HD
Compression mode : Lossy
Delay relative to video : -43 ms
Stream size : 125 MiB (10%)
Language : English
Default : No
Forced : No

Text
ID : 5
Format : UTF-8
Codec ID : S_TEXT/UTF8
Codec ID/Info : UTF-8 Plain Text
Duration : 2 h 4 min
Bit rate : 46 b/s
Count of elements : 1536
Stream size : 42.0 KiB (0%)
Language : English
Default : Yes
Forced : No

Images, Screenshots Of Full Episodes

Some Images Of Rogue One: A Star Wars Story Hindi + English + Tamil 720p BDRip Movie

Rogue One: A Star Wars Story Full Movie Download 720p BDRip HD In Hindi, English, Tamil Dubbed Audio

Rogue One: A Star Wars Story Full Movie Download 720p BDRip HD In Hindi, English, Tamil Dubbed Audio

Rogue One: A Star Wars Story Full Movie Download 720p BDRip HD In Hindi, English, Tamil Dubbed Audio

Watch The Full HD 720p, 1080p Movie Trailers

Watch Rogue One: A Star Wars Story 2016 Full Official Movie Trailer

Direct Download Links Of Rogue One: A Star Wars Story In Hindi, English, Tamil 720p HD Given Below

Free Download Direct Links HD

Direct Links For Premium Users

If you are the member of this site then enter your login details and Enjoy Direct Links

Leave a Reply

Your email address will not be published. Required fields are marked *

Check Also

Interstellar (2014) English 720p BluRay x264 AAC [Hindi Subtitle] ESubs – 1.4 GB

Interstellar 2014 Full Movie Free Download In 720p BluRay Quality Encoded In x264 With Hin…