Once Upon A Deadpool (2018) 720p WEB-DL 950MB - MkvCage

IMDb:- http://www.imdb.com/title/tt5463162
Movie Title: Once Upon A Deadpool (2018)
Director: David Leitch
Stars: Ryan Reynolds, Josh Brolin, Morena Baccarin
Release Date: 18 May 2018 (USA)
Genres: Action, Adventure, Comedy, Sci-Fi
Format: MatRoska (Mkv)
File Size: 959MB
Resolution: 1280×534
Runtime: 01:58:27
Language: English
Subtitles: None
Encoder: MkvCage (MkvCage.ws) Team
Source: 1080p.WEB-DL.H264.AC3-EVO

MEDIA INFO

MEDIA INFO

Format : Matroska
Format version : Version 4
File size : 959 MiB
Duration : 1 h 58 min
Overall bit rate : 1 132 kb/s
Movie name : Once.Upon.A.Deadpool.2018.720p.WEB-DL.MkvCage.ws
Encoded date : UTC 2019-01-15 03:32:37
Writing application : mkvmerge v30.1.0 (‘Forever And More’) 64-bit
Writing library : libebml v1.3.6 + libmatroska v1.4.9

Video
ID : 2
Format : AVC
Format/Info : Advanced Video Codec
Format profile : [email protected]
Format settings : CABAC / 5 Ref Frames
Format settings, CABAC : Yes
Format settings, RefFrames : 5 frames
Codec ID : V_MPEG4/ISO/AVC
Duration : 1 h 58 min
Bit rate : 1 067 kb/s
Width : 1 280 pixels
Height : 534 pixels
Display aspect ratio : 2.40:1
Original display aspect ratio : 2.40:1
Frame rate mode : Constant
Frame rate : 23.976 (24000/1001) FPS
Color space : YUV
Chroma subsampling : 4:2:0
Bit depth : 8 bits
Scan type : Progressive
Bits/(Pixel*Frame) : 0.065
Stream size : 904 MiB (94%)
Writing library : x264 core 155 r2901 7d0ff22
Encoding settings : cabac=1 / ref=5 / deblock=1:0:0 / analyse=0x3:0x113 / me=hex / subme=8 / psy=1 / psy_rd=1.00:0.00 / mixed_ref=1 / me_range=16 / chroma_me=1 / trellis=2 / 8x8dct=1 / cqm=0 / deadzone=21,11 / fast_pskip=1 / chroma_qp_offset=-2 / threads=17 / lookahead_threads=2 / sliced_threads=0 / nr=0 / decimate=1 / interlaced=0 / bluray_compat=0 / constrained_intra=0 / bframes=3 / b_pyramid=2 / b_adapt=1 / b_bias=0 / direct=3 / weightb=1 / open_gop=0 / weightp=2 / keyint=240 / keyint_min=24 / scenecut=40 / intra_refresh=0 / rc_lookahead=50 / rc=2pass / mbtree=1 / bitrate=1067 / ratetol=1.0 / qcomp=0.60 / qpmin=0 / qpmax=69 / qpstep=4 / cplxblur=20.0 / qblur=0.5 / vbv_maxrate=62500 / vbv_bufsize=78125 / nal_hrd=none / filler=0 / ip_ratio=1.40 / aq=1:1.00
Default : Yes
Forced : No
Color range : Limited
Color primaries : BT.709
Transfer characteristics : BT.709
Matrix coefficients : BT.709

Audio
ID : 1
Format : AAC LC SBR
Format/Info : Advanced Audio Codec Low Complexity with Spectral Band Replication
Commercial name : HE-AAC
Format settings : Explicit
Codec ID : A_AAC-2
Duration : 1 h 57 min
Bit rate : 64.0 kb/s
Channel(s) : 2 channels
Channel layout : L R
Sampling rate : 48.0 kHz
Frame rate : 23.438 FPS (2048 SPF)
Compression mode : Lossy
Delay relative to video : 31 ms
Stream size : 53.9 MiB (6%)
Language : English
Default : Yes
Forced : No

Menu
00:00:00.000 : :Chapter 1
00:04:06.163 : :Chapter 2
00:06:12.414 : :Chapter 3
00:11:30.481 : :Chapter 4
00:15:12.870 : :Chapter 5
00:18:34.322 : :Chapter 6
00:20:50.791 : :Chapter 7
00:24:32.513 : :Chapter 8
00:25:53.886 : :Chapter 9
00:28:18.030 : :Chapter 10
00:32:39.833 : :Chapter 11
00:36:22.597 : :Chapter 12
00:39:47.176 : :Chapter 13
00:42:26.044 : :Chapter 14
00:45:28.476 : :Chapter 15
00:49:03.941 : :Chapter 16
00:52:18.761 : :Chapter 17
00:54:49.620 : :Chapter 18
00:56:32.514 : :Chapter 19
00:58:20.080 : :Chapter 20
01:03:26.011 : :Chapter 21
01:07:01.768 : :Chapter 22
01:12:22.713 : :Chapter 23
01:17:14.713 : :Chapter 24
01:20:18.272 : :Chapter 25
01:23:44.686 : :Chapter 26
01:25:42.387 : :Chapter 27
01:28:29.846 : :Chapter 28
01:29:57.350 : :Chapter 29
01:31:30.694 : :Chapter 30
01:33:03.161 : :Chapter 31
01:36:21.401 : :Chapter 32
01:38:59.851 : :Chapter 33
01:42:44.325 : :Chapter 34
01:46:27.756 : :Chapter 35
01:56:50.003 : :Chapter 36

Once Upon A Deadpool (2018) 720p WEB-DL 950MB - MkvCage

Download From Server 1

Download From Server 2

Download From Server 3

Leave a Reply

Your email address will not be published. Required fields are marked *

Check Also

Fifty Shades Darker (2017) BluRay 1080p UNRATED [Hindi 5.1 + English] Dual Audio x264 ESubs – 2.3 GB

Fifty Shades Darker (2017) BluRay 1080p UNRATED [Hindi 5.1 + English] Dual-Audio x264 ESub…