Hoichoi Originals Mismatch Web Series Hindi Dubbed Download All Episodes Of Season 1 720p WEB-DL Quality Encoded In x264 MKV With English Subtitles.

Hoichoi TV Mismatch Web Series Hindi Dubbed Download 720p HD 2019 Season 1

Details Of Full Length Free Videos

Title: Mismatch Season 1 In Hindi
Genre: Comedy | Romance
Language: Hindi
Release On: 15 September 2018
Director : Soumik Chattopadhyay
Quality: 720p WEB-DL x264
Subtitles: English
Audio: AAC
Format: MKV
Size: 1.4-GB

Hoichoi

Storyline

Diana feels her husband Ayan could be a pair for her. whereas attempting to explore and satiate her desires, can the couple find yourself during a “happily ever after” scenario or not, is left for the viewers to seek out out. Hoichoi Originals web-series “MIsmatch”. Directed by Soumik Chattopadhyay, this crazy comedy stars Rajdeep Gupta, Rachel White, Mainak Banerjee and Supurna Malakar. Here’s to some fun, comedy, lot’s of action.

Mismatch Web Series In Hindi Synopsis:

E1 – Toka Tok Toka Tok
Ayan Associate in Nursingd Diana create an odd couple, abundant to the latter’s vexation. On the contrary, Subhro isn’t happy with Urmi. however can the couple modification situations?

E2 – TUMI KI AMAR CHOTO PISI?
Subhro is elated to require Urmi for a visit, that she agrees to with abundant timidity for reasons famed to her. will Diana convert Ayan for a mystery tour as planned?

E3 – I LOVE TO PUSH
Upon reaching the destination, Ayan gets the shock of his life when finding the explanation for the trip could be a fast episode of couple swapping! can he select it?

E4 – PARALLEL UNIVERSE
The spree of journey for Diana and her partner gets a jerk, once some uncalled things arise, and arrive within the same edifice wherever the couples are staying!

E5 – MEYE DAKAT!!
Things flip worse for Ayan and Urmi, whereas Diana and Subhro feel their’s could be a good match. Are they deciding to decision it equal with their various partners?

E6 – WHAT THE FCUK!
It’s time for the couples to face the blows from their wives, not for higher except for worse!

MEDIA INFO

MEDIA INFO

General
Format : Matroska
Format version : Version 4
File size : 1.40 GiB
Duration : 2 h 13 min
Overall bit rate : 1 508 kb/s
Writing application : Lavf58.20.100
Writing library : Lavf58.20.100
ErrorDetectionType : Per level 1

Video
ID : 1
Format : AVC
Format/Info : Advanced Video Codec
Format profile : [email protected]
Format settings : CABAC / 4 Ref Frames
Format settings, CABAC : Yes
Format settings, RefFrames : 4 frames
Codec ID : V_MPEG4/ISO/AVC
Duration : 2 h 13 min
Bit rate : 2 048 kb/s
Nominal bit rate : 1 314 kb/s
Width : 1 280 pixels
Height : 720 pixels
Display aspect ratio : 16:9
Frame rate mode : Constant
Frame rate : 25.000 FPS
Color space : YUV
Chroma subsampling : 4:2:0
Bit depth : 8 bits
Scan type : Progressive
Bits/(Pixel*Frame) : 0.089
Stream size : 1.91 GiB
Writing library : x264 core 148 r2643 5c65704
Default : Yes
Forced : No

Audio
ID : 2
Format : AAC LC
Format/Info : Advanced Audio Codec Low Complexity
Codec ID : A_AAC-2
Duration : 2 h 13 min
Bit rate : 129 kb/s
Channel(s) : 1 channel
Channel layout : C
Sampling rate : 44.1 kHz
Frame rate : 43.066 FPS (1024 SPF)
Compression mode : Lossy
Stream size : 123 MiB (9%)
Writing library : Lavc58.35.100 libfdk_aac
Default : Yes
Forced : No

Images, Screenshots Of Full Episodes

Screenshots/Images Of Mismatch Web Series In Hindi Download All Episodes 720p WEB-DL x264

Hoichoi TV Mismatch Web Series Hindi Dubbed Download 720p HD 2019 Season 1

Watch The Full HD 720p, 1080p Movie Trailers

Watch Mismatch 2019 Trailer

Free Download Mismatch Web Series Hindi Dubbed Season 1 All Episodes 720p HD From Below

Free Download Direct Links HD

Direct Links For Premium Users

If you are the member of this site then enter your login details and Enjoy Direct Links

Leave a Reply

Your email address will not be published. Required fields are marked *

Check Also

Damaged Season 1 – Complete [Updated]

Damaged Web Series Download All Episodes Free In Hindi 720p HD WEB-DL Quality Encoded In x…