Love Sonia Full Movie Download 720p HD WEB-DL Quality Direct Links Encoded In x264 MKV With 5.1 Channel Audio.

Love Sonia Full Movie 720p HD Free Download Direct Links 480p

Details Of Full Length Free Videos

Title: Love Sonia 2018
Genres: Drama
Country: India
Language: Hindi
Release Date: 14 September 2018
Quality: 720p WEB-DL x264
Audio: AAC 5.1CH
Format: MKV
Size: 716-MB

IMDb

Storyline

Love Sonia Full Movie 720p HD Free Download Inspired by real life events, Love Sonia is the story of a young girl’s journey to rescue her sister from the dangerous world of international sex trafficking.

The film is the harrowing account of two sisters robbed of their innocence when one is sold by her debt-ridden father, and the other follows after her in the hope of rescuing her but becomes trapped in the flesh trade herself. While on troublesome and challenging journey that takes us through the red light areas of Mumbai, the latent innocence in the younger sister and the grit to rescue her sister and eventually herself stays intact.

About Love Sonia 2018 Hindi Movie:

Love Sonia Free Download 720p HD is a 2018 Indian film directed by Tabrez Noorani and produced by David Womark. The film features newcomer Mrunal Thakur as the title character along with Riya Sisodiya, Freida Pinto, Demi Moore, Manoj Bajpayee, Richa Chadda, Anupam Kher, Adil Hussain, Rajkummar Rao, and Sai Tamhankar. Love Sonia had its world premiere at the London Indian Film Festival on 21 June 2018.The film was released in India on 14 September, 2018.

Love Sonia Full Movie Cast

  • Mrunal Thakur as Sonia
  • Freida Pinto as Rashmi
  • Sai Tamhankar as Anjali
  • Mark Duplass
  • Manoj Bajpayee as Faizal
  • Rajkummar Rao as Manish
  • Richa Chadda as Madhuri
  • Riya Sisodiya as Preeti
  • Anupam Kher as Dada Thakur
  • Adil Hussain as Shiva
  • Demi Moore as Selma
  • Sunny Pawar as Bang Bang

MKV File Details

MKV File Details

General
Complete name : Love Sonia 2018 Hindi 720p WEB-DL x264 5.1 AAC { TaRa }.mkv
Format : Matroska
Format version : Version 4
File size : 716 MiB
Duration : 2 h 3 min
Overall bit rate mode : Variable
Overall bit rate : 809 kb/s
===================================================================
Video
ID : 1
Format : AVC
Format/Info : Advanced Video Codec
Format profile : [email protected]
Format settings : CABAC / 1 Ref Frames
Format settings, CABAC : Yes
Format settings, ReFrames : 1 frame
Codec ID : V_MPEG4/ISO/AVC
Duration : 2 h 3 min
Bit rate mode : Variable
Bit rate : 599 kb/s
Maximum bit rate : 2 000 kb/s
Width : 1 280 pixels
Height : 720 pixels
Display aspect ratio : 16:9
Frame rate mode : Constant
Frame rate : 24.000 FPS
Color space : YUV
Chroma subsampling : 4:2:0
Bit depth : 8 bits
Scan type : Progressive
Bits/(Pixel*Frame) : 0.027
Stream size : 530 MiB (74%)
Language : Hindi
Default : Yes
Forced : No
===================================================================
Audio
ID : 2
Format : AAC LC
Format/Info : Advanced Audio Codec Low Complexity
Codec ID : A_AAC-2
Duration : 2 h 3 min
Bit rate : 208 kb/s
Channel(s) : 6 channels
Channel layout : C L R Ls Rs LFE
Sampling rate : 44.1 kHz
Frame rate : 43.066 FPS (1024 SPF)
Compression mode : Lossy
Delay relative to video : -33 ms
Stream size : 184 MiB (26%)
Language : Hindi
Default : Yes
Forced : No

Images, Screenshots Of Full Episodes

Some Images Of Love Sonia 2018 Hindi Movie 720p WEB-DL x264

Love Sonia Full Movie 720p HD Free Download Direct Links 480p

Love Sonia Full Movie 720p HD Free Download Direct Links 480p

Love Sonia Full Movie 720p HD Free Download Direct Links 480p

Love Sonia Full Movie 720p HD Free Download Direct Links 480p

Love Sonia Full Movie 720p HD Free Download Direct Links 480p

Love Sonia Full Movie 720p HD Free Download Direct Links 480p

Love Sonia Full Movie 720p HD Free Download Direct Links 480p

Love Sonia Full Movie 720p HD Free Download Direct Links 480p

Watch The Full HD 720p, 1080p Movie Trailers

Watch Love Sonia 2018 Full HD Movie Trailer

Direct Download Links Of Love Sonia Full Movie In 720p HD Given Below

Free Download Direct Links HD

Direct Links For Premium Users

If you are the member of this site then enter your login details and Enjoy Direct Links

Leave a Reply

Your email address will not be published. Required fields are marked *

Check Also

Puncch Beat Season 1 – Complete [Updated]

Puncch Beat Web Series Season 1 All Episodes Free Download In Hindi 720p WEB-DL Quality En…