Banjara The Truck Driver Full Movie Download 720p HD Quality Encoded In x264 MKV With English Subtitles.

Banjara The Truck Driver Full Movie Download 720p HD Babbu Maan WIth Subtitles

Details Of Full Length Free Videos

Title: Banjara The Truck Driver 2018 (Punjabi)
Genres: Drama | Romance
Country: India | Canada
Language: Punjabi
Release Date: 7 December 2018
Quality: 720p HD x264
Audio: AAC
Format: MKV
Size: 745-MB

IMDb

Storyline

Banjara The Truck Driver Full Movie Download Direct Links The storyline is about 3 characters of Babbu Maan in different places and in different eras but the three stories told are love stories of the individual. A strong, compassionate lover teamed with different women in different places. They have shown the yesteryear in a rural village of Punjab, today’s story in modern Punjab and Chandigarh and another story setup in Canada.

About:

Banjara The Truck Driver Babbu Maan Full Movie Free Download 720p HD is a 2018 Indian-Punjabi drama film directed by Mushtaq Pasha. The film stars Babbu Maan, Rana Ranbir, Gurpreet Bhangu, Jia Mustafa, Shraddha Arya in prominent. It is the first film of Babbu Maan after Baaz which was released in 2014. The film is based on life of truck drivers. The film will highlight eras of 1947, 1984 and 2018 showing love interests of three generations in their younger days Banjara The Truck Driver Full Movie Babbu Maan With English Subtitles.

The film was theatrically released on 7 December 2018. The film received “mixed” to “negative” reviews from critics.

Banjara The Truck Driver Full Movie Cast

  • Babbu Maan as
  • Harnek Singh
  • Binder Singh
  • Nachhatar Singh
  • Rana Ranbir
  • Gurpreet Bhangu
  • Jia Mustafa
  • Shraddha Arya
  • Malkit Rauni
  • Prakash Yadu
  • Sara Khatri

Casting

As the story consists of three love stories of three generations of a family grandfather, father and son respectively. So, it was difficult task to cast three actors and actress. Then, Pasha suggested Maan to play all three roles as all the characters are from same family and the minor difference would be created by make-up. In all Maan’s films evertime new faces are seen as he is willing to give chance to new performers in Punjabi cinema so the three television actresses Shraddha Arya, Jia Mustafa and Sara Khatri were casted opposite to Maan. The film also stars Rana Ranbir, Gurpreet Bhangu, Rana Ahluwalia in supporting roles.

MKV File Details

MKV File Details

Format : Matroska Banjara The Truck Driver Full Punjabi Movie
Format version : Version 4 / Version 2
File size : 744 MiB
Duration : 2 h 10 min
Overall bit rate : 797 kb/s
Movie name : Banjara The Truck Driver 2018 GOPISAHI

Video Banjara The Truck Driver Punjabi Full Movie
Format : AVC
Format/Info : Advanced Video Codec
Codec ID : V_MPEG4/ISO/AVC
Duration : 2 h 10 min
Bit rate : 699 kb/s
Width : 1 280 pixels
Height : 538 pixels
Display aspect ratio : 2.40:1
Frame rate mode : Constant
Frame rate : 24.000 FPS
Color space : YUV
Chroma subsampling : 4:2:0
Bit depth : 8 bits
Scan type : Progressive
Bits/(Pixel*Frame) : 0.042
Stream size : 652 MiB (88%)
Title : GOPISAHI
Writing library : x264 core 155 r2901 7d0ff22

Audio Banjara The Truck Driver Full Movie Download In Hd
Format : AAC
Duration : 2 h 10 min
Bit rate : 96.0 kb/s
Channel(s) : 2 channels
Channel positions : Front: L R
Sampling rate : 48.0 kHz
Frame rate : 46.875 FPS (1024 SPF)
Compression mode : Lossy
Delay relative to video : -126 ms
Stream size : 89.8 MiB (12%)
Title : GOPISAHI
Language : Panjabi

Text
Language : English

Images, Screenshots Of Full Episodes

Some Images Of Banjara The Truck Driver Movie Download In Punjabi 720p PDVD x264

Banjara The Truck Driver Full Movie Download 720p HD Babbu Maan WIth Subtitles

Banjara The Truck Driver Full Movie Download 720p HD Babbu Maan WIth Subtitles

Banjara The Truck Driver Full Movie Download 720p HD Babbu Maan WIth Subtitles

Watch The Full HD 720p, 1080p Movie Trailers

Watch Banjara The Truck Driver 2018 Punjabi Movie Trailer

Direct Download Links Of Banjara The Truck Driver 2018 Full Movie In 720p PDVD Given Below

Free Download Direct Links HD

Direct Links For Premium Users

If you are the member of this site then enter your login details and Enjoy Direct Links

Leave a Reply

Your email address will not be published. Required fields are marked *

Check Also

Damaged Season 1 – Complete [Updated]

Damaged Web Series Download All Episodes Free In Hindi 720p HD WEB-DL Quality Encoded In x…